The Good Place s03e07 The Equalizer 2 etrg ncis dtone american horror story how to get away with murder the flash 2018 ita arrow español klavierb?chlein wwe supernatural survivor big bang theory The Nun walking dead MODERN FAMILY ita nana vasconcelos porn the walking dead The Big Bang Theory s12e07 2018 movies fgt a star is born lucifer Better Call Saul alpha supernatural s14e04 0 daichi fujiki great british bake off s09e10 Venom ethd wwe crown jewel House of cards Arrow The Big Bang Theory game of thrones Star trek discovery big bang theory español Evo etmovies Greys Anatomy ettv titans s01e04 HINDI High Castle s03e07 South park titans Incredibles 2 Young Sheldon S02E07 LETHAL WEAPON The good place ddr house of cards s06 the predator IT evo Legends of tomorrow homecoming legacies S01E02 supergirl ETRG nfl LEGACIES blindspot seal team the meg young sheldon 
Warning! Do not Download Without a VPN!
Your IP Address is .   Location is
Download and surf securely, stream unlimited and protect your personal data!
We strongly recommend using SpyOFF VPN!
Become Anonymous with SpyOFF
ETTV Recommended TV Shows
Titans.S01E04.WEBRip.x264-eSc[ettv] torrent
A.Discovery.Of.Witches.S01E08.HDTV.x264-GARBAGE[ettv] torrent
Van.Helsing.S03E05.WEB.x264-TBS[ettv] torrent
Hawaii.Five-0.2010.S09E06.HDTV.x264-SVA[ettv] torrent

ETTV Recommended Xvid
The Marine 6.Close Quarters.2018.DVDRip.XviD.AC3-EVO[EtMovies] torrent
The.Meg.2018.BDRip.XviD.AC3-EVO[EtMovies] torrent
The.First.Date.2018.HDRip.XviD.AC3-EVO[EtMovies] torrent
BlacKkKlansman.2018.BRRip.XviD.AC3-EVO[EtMovies] torrent

ETTV Recommended HD
Our.House.2018.BluRay.1080p.AAC.x264-MPAD[EtHD] torrent
The.Holiday.Calendar.2018.Multi.1080p.NF.WebDL.AVC.DD.5.1-DTOne torrent
The.Meg.2018.1080p.Bluray.X264-EVO[EtHD] torrent
BlacKkKlansman.2018.1080p.BluRay.x264-GECKOS[EtHD] torrent

ETTV Recommended UHD
Justice.League.Dark.2017.Multi.mUHD.2160p.BluRay.x265.HDR.DTS.5.1-DTOne torrent
The.Matrix.Revolutions.2003.Multi.mUHD.2160p.x265.HDR.DD.5.1-DTOne torrent
The.Fog.1980.Multi.UHD.2160p.Bluray.x265.HDR.TS.5.1-DTOne torrent
They.Live.1988.Multi.UHD.2160p.Bluray.x265.HDR.DTS.5.1-DTOne torrent

ETTV Recommended Cam
Hunter Killer 2018 HDCAM.XViD.AC3-ETRG torrent
Replicas 2018.HDCAM.x264.AC3-ETRG torrent
Bohemian Rhapsody 2018 HDCAM.XViD.AC3-ETRG torrent
The Nutcracker and the Four Realms 2018 HDCAM.XViD.AC3-ETRG torrent

ETTV Recommended Foreign
Raambo 2 (2018) 720p UNCUT HDRip x264 [Dual Audio] [Hindi DD 2.0 - Kannada 2.0] Exclusive By -=!Dr.STAR!=- torrent
Upendra Matte Baa (2017) 720p UNCUT HDRip x264 [Dual Audio] [Hindi DD 2.0 - Kannada 2.0] Exclusive By -=!Dr.STAR!=- torrent
Raatchasan (2018) 720p x265 AAC 5.1 - DTOne torrent
Dans la brume 2018 1080p BluRay DD5.1 x264-SPEED[EtHD] torrent

Social


Download Torrent "SEAL Team S02E04 (1080p AMZN WEB-DL x265 HEVC 10bit AAC 5.1 Joy) [UTR]"

IMDB Details
Description:

N/A

Genre:

N/A

Download Torrent (Magnet)
Download Torrent (File)
Seeds: 89
Leechers: 61
Completed: 1,950 
Last Checked: 29-10-2018 13:48:36


Loading...
Details
Title:SEAL Team S02E04 (1080p AMZN WEB-DL x265 HEVC 10bit AAC 5.1 Joy) [UTR]
Description:




Media Information
General
Format                                   : Matroska
Format version                           : Version 4 / Version 2
File size                                : 434 MiB
Duration                                 : 42 min 57 s
Overall bit rate                         : 1 412 kb/s
Encoded date                             : UTC 2018-10-27 07:11:59
Writing application                      : mkvmerge v25.0.0 ('Prog Noir') 64-bit
Writing library                          : libebml v1.3.6 + libmatroska v1.4.9
Writing frontend                         : StaxRip v1.8.2.0

Video
ID                                       : 1
Format                                   : HEVC
Format/Info                              : High Efficiency Video Coding
Format profile                           : Main [email protected]@Main
Codec ID                                 : V_MPEGH/ISO/HEVC
Duration                                 : 42 min 57 s
Bit rate                                 : 1 195 kb/s
Width                                    : 1 920 pixels
Height                                   : 1 080 pixels
Display aspect ratio                     : 16:9
Frame rate mode                          : Variable
Frame rate                               : 24.000 FPS
Original frame rate                      : 24.083 FPS
Color space                              : YUV
Chroma subsampling                       : 4:2:0
Bit depth                                : 10 bits
Bits/(Pixel*Frame)                       : 0.024
Stream size                              : 367 MiB (85%)
Writing library                          : x265 2.8+19-bcdc610cf5f0:[Windows][MSVC 1914][64 bit] 10bit
Encoding settings                        : cpuid=1111039 / frame-threads=3 / numa-pools=8 / wpp / no-pmode / no-pme / no-psnr / ssim / log-level=2 / input-csp=1 / input-res=1920x1080 / interlace=0 / total-frames=61861 / level-idc=0 / high-tier=1 / uhd-bd=0 / ref=4 / no-allow-non-conformance / no-repeat-headers / annexb / no-aud / no-hrd / info / hash=0 / no-temporal-layers / open-gop / min-keyint=24 / keyint=250 / gop-lookahead=0 / bframes=4 / b-adapt=2 / b-pyramid / bframe-bias=0 / rc-lookahead=80 / lookahead-slices=4 / scenecut=40 / radl=0 / no-intra-refresh / ctu=64 / min-cu-size=8 / no-rect / no-amp / max-tu-size=32 / tu-inter-depth=1 / tu-intra-depth=1 / limit-tu=0 / rdoq-level=2 / dynamic-rd=0.00 / ssim-rd / signhide / no-tskip / nr-intra=0 / nr-inter=0 / no-constrained-intra / strong-intra-smoothing / max-merge=3 / limit-refs=3 / limit-modes / me=3 / subme=3 / merange=57 / temporal-mvp / weightp / no-weightb / no-analyze-src-pics / deblock=0:0 / sao / no-sao-non-deblock / rd=4 / no-early-skip / rskip / no-fast-intra / no-tskip-fast / no-cu-lossless / no-b-intra / splitrd-skip / rdpenalty=0 / psy-rd=0.00 / psy-rdoq=1.50 / no-rd-refine / no-lossless / cbqpoffs=0 / crqpoffs=0 / rc=abr / bitrate=1200 / qcomp=0.60 / qpstep=4 / stats-write=0 / stats-read=2 / cplxblur=20.0 / qblur=0.5 / vbv-maxrate=2400 / vbv-bufsize=6400 / vbv-init=0.9 / ipratio=1.40 / pbratio=1.30 / aq-mode=3 / aq-strength=0.80 / cutree / zone-count=0 / no-strict-cbr / qg-size=32 / no-rc-grain / qpmax=69 / qpmin=0 / no-const-vbv / sar=0 / overscan=0 / videoformat=5 / range=0 / colorprim=2 / transfer=2 / colormatrix=2 / chromaloc=0 / display-window=0 / max-cll=0,0 / min-luma=0 / max-luma=1023 / log2-max-poc-lsb=8 / vui-timing-info / vui-hrd-info / slices=1 / no-opt-qp-pps / no-opt-ref-list-length-pps / multi-pass-opt-rps / scenecut-bias=0.05 / no-opt-cu-delta-qp / no-aq-motion / no-hdr / no-hdr-opt / no-dhdr10-opt / no-idr-recovery-sei / analysis-reuse-level=10 / scale-factor=0 / refine-intra=0 / refine-inter=0 / refine-mv=0 / limit-sao / ctu-info=0 / no-lowpass-dct / refine-mv-type=0 / copy-pic=1 / max-ausize-factor=1.0 / no-dynamic-refine / no-single-sei
Default                                  : Yes
Forced                                   : No

Audio
ID                                       : 2
Format                                   : AAC
Format/Info                              : Advanced Audio Codec
Format profile                           : HE-AAC / LC
Codec ID                                 : A_AAC
Duration                                 : 42 min 57 s
Bit rate                                 : 214 kb/s
Channel(s)                               : 6 channels
Channel positions                        : Front: L C R, Side: L R, LFE
Sampling rate                            : 48.0 kHz / 24.0 kHz
Frame rate                               : 23.438 FPS (1024 spf)
Compression mode                         : Lossy
Delay relative to video                  : 31 ms
Stream size                              : 65.8 MiB (15%)
Language                                 : English
Default                                  : No
Forced                                   : No

Subtitle #1
ID                                       : 3
Format                                   : UTF-8
Codec ID                                 : S_TEXT/UTF8
Codec ID/Info                            : UTF-8 Plain Text
Duration                                 : 42 min 19 s
Bit rate                                 : 67 b/s
Count of elements                        : 681
Stream size                              : 20.8 KiB (0%)
Language                                 : English
Default                                  : No
Forced                                   : No

Subtitle #2
ID                                       : 4
Format                                   : UTF-8
Codec ID                                 : S_TEXT/UTF8
Codec ID/Info                            : UTF-8 Plain Text
Duration                                 : 42 min 19 s
Bit rate                                 : 69 b/s
Count of elements                        : 723
Stream size                              : 21.4 KiB (0%)
Language                                 : English
Default                                  : No
Forced                                   : No

Source Information
Release: SEAL.Team.S02E04.All.That.Matters.1080p.AMZN.WEB-DL.DDP5.1.H.264-NTb.mkv (2.84 GBs)


UTR wrote:

Note From UTR
We have no issue with individuals posting or re-uploading our torrents on a platform we aren't on. However, if this is something you'd like to do, please do so in a 'as-is' format. We ask that you do not create a new torrent, include all descriptions you see above including the UTR logo, tags, notes and screenshots. If you'd like to become a permanent poster on a website we don't post to, feel free to get in contact with a UniTeam member.

If possible please donate: BTC 1QA5fum5AyXvWzdVCkQzUNvw3Ef15fHRaR


Category:TV > HEVC/x265
Lang:English  English
Total Size:434 MB
Info Hash:4c6ac3f3240f099e1a3eb8a968d5f069f548cc0a
Added By:UTR
Date Added:29-10-2018 13:48:25

Files

File List: 
 File Size
SEAL Team S02E04 All That Matters (1080p x265 10bit FS91 Joy).mkv434 MB



Loading...
Comments

There are currently no comments. Be the first one to write something !

Disclaimer: None of the files shown here are actually hosted or transmitted by this server. The links are provided solely by this site's users. The site moderation is also a service provided by the site's users. The administrator of this site (ettv.tv) cannot be held responsible for what its users post, or any other actions of its users. You may not use this site to distribute or download any material when you do not have the legal rights to do so. It is your own responsibility to adhere to these terms.

SitemapGet Smart (1965) | www.Gewinnzahlen Deutsche Fernsehlotterie-verpasst.de/wiederholung-runterladen | Скачать и Смотреть